[高清电影] 血爱成河[HDR/杜比视界双版本][简繁英字幕].Love.Lies.Bleeding.2024.2160p.UHD.BluRay.DV.x265.10bit.TrueHD.7.1.Atmos-ParkHD

115大咖1122024-06-29 03:25:47



[高清电影] 血爱成河[HDR/杜比视界双版本][简繁英字幕].Love.Lies.Bleeding.2024.2160p.UHD.BluRay.DV.x265.10bit.TrueHD.7.1.Atmos-ParkHD


◎标  题 血爱成河
◎译  名 爱的谎言在流血 / 流血之爱 / 爱在流血中
◎片  名 Love Lies Bleeding
◎年  代 2024
◎产  地 英国 / 美国
◎类  别 爱情 / 惊悚 / 同性
◎语  言 英语
◎上映日期 2024-01-20(圣丹斯电影节) / 2024-03-08(美国)
◎IMDb评分 6.7/10 (26820人评价)
◎IMDb链接 https://www.imdb.com/title/tt19637052/
◎豆瓣评分 5.9/10 (8920人评价)
◎豆瓣链接 https://movie.douban.com/subject/35801408/
◎片  长 104分钟
◎导  演 罗斯·格拉斯 Rose Glass
◎编  剧 罗斯·格拉斯 Rose Glass
       维罗妮卡·托菲尔斯卡 Weronika Tofilska
◎演  员 克里斯汀·斯图尔特 Kristen Stewart
       凯蒂·M·奥布莱恩 Katy M. O'Brian
       艾德·哈里斯 Ed Harris
       戴夫·弗兰科 Dave Franco
       吉娜·马隆 Jena Malone
       安娜·巴瑞辛尼科夫 Anna Baryshnikov
       基思·雅各 Keith Jardine
       伊薇特·法齐奥-德莱尼 Yvette Fazio-Delaney
       戴维·德劳 David DeLao
       凯莱布·贝克 Caleb Baker
       米坎德鲁 Mikandrew
       莉莉·哈里斯 Lily Harris
       罗杰·伊文斯 Roger Ivens
       杰瑞·G·安格罗 Jerry G. Angelo
       凯瑟琳·豪恩 Catherine Haun
       道格·蒙托亚 Doug Montoya
       斯蒂芬妮·希尔 Stephanie Hill
       希拉里·弗莱明 Hilary Fleming
       马修·布鲁德-史密斯 Matthew Blood-Smyth
       干沙路·罗夫莱斯 Gonzalo Robles
       杰夫·沃尔登 Jeff Worden
       奥瑞恩·卡林顿 Orion Carrington
       克丽斯托·梅耶斯 Crystal Mayes
       基姆·蒙蒂 Kim S. Monti
       朗特雷尔·安德森 Lontrell Anderson
       埃尔登·琼斯 Eldon Jones
       杰米·哈维尔·格雷罗 Jamie Javier Guerreo

◎简  介
    健身房经理卢(克里斯汀·斯图尔特 Kristen Stewart 饰)爱上了健美运动员杰姬(凯蒂·M·奥布莱恩 Katy M. O'Brian 饰),后者来到拉斯维加斯追寻健美梦想。她们卷入了一个暴力事件,背后正是卢的父亲缔造的犯罪网络。

[高清电影] 血爱成河[HDR/杜比视界双版本][简繁英字幕].Love.Lies.Bleeding.2024.2160p.UHD.BluRay.DV.x265.10bit.TrueHD.7.1.Atmos-ParkHD

##### MediaInfo ######
General
Unique ID                                : 2202199896502637718089437053129624273 (0x1A820D67619441999A844028A248AD1)
Complete name                            : Love.Lies.Bleeding.2024.2160p.UHD.BluRay.DV.x265.10bit.TrueHD.7.1.Atmos-ParkHD.mkv
Duration                                 : 1 h 43 min
Overall bit rate mode                    : Variable
Overall bit rate                         : 24.2 Mb/s

Video
ID                                       : 1
Format                                   : HEVC
Format/Info                              : High Efficiency Video Coding
Format profile                           : Main [email protected]@Main
HDR format                               : Dolby Vision, Version 1.0, dvhe.08.06, BL+RPU, HDR10 compatible
Codec ID                                 : V_MPEGH/ISO/HEVC
Duration                                 : 1 h 43 min
Bit rate                                 : 19.3 Mb/s
Width                                    : 3 840 pixels
Height                                   : 1 604 pixels
Display aspect ratio                     : 2.40:1
Frame rate mode                          : Constant
Frame rate                               : 23.976 (24000/1001) FPS
Color space                              : YUV
Chroma subsampling                       : 4:2:0
Bit depth                                : 10 bits
Bits/(Pixel*Frame)                       : 0.131
Stream size                              : 14.0 GiB (80%)
Title                                    : veryzayin@HDSky
Writing library                          : x265 - H.265/HEVC codec
Encoding settings                        : unable / to / parse / mastering / display / color / volume / info
Default                                  : Yes
Forced                                   : No
Color range                              : Limited
Color primaries                          : BT.2020
Transfer characteristics                 : PQ
Matrix coefficients                      : BT.2020 non-constant
Maximum Content Light Level              : 2549 cd/m2
Maximum Frame-Average Light Level        : 84 cd/m2

Audio #1
ID                                       : 2
Format                                   : MLP FBA 16-ch
Format/Info                              : Meridian Lossless Packing FBA with 16-channel presentation
Commercial name                          : Dolby TrueHD with Dolby Atmos
Codec ID                                 : A_TRUEHD
Duration                                 : 1 h 43 min
Bit rate mode                            : Variable
Bit rate                                 : 4 134 kb/s
Maximum bit rate                         : 6 912 kb/s
Channel(s)                               : 8 channels
Channel layout                           : L R C LFE Ls Rs Lb Rb
Sampling rate                            : 48.0 kHz
Frame rate                               : 1 200.000 FPS (40 SPF)
Compression mode                         : Lossless
Stream size                              : 2.99 GiB (17%)
Title                                    : English
Language                                 : English
Default                                  : Yes
Forced                                   : No
Number of dynamic objects                : 11
Bed channel count                        : 1 channel
Bed channel configuration                : LFE

Audio #2
ID                                       : 3
Format                                   : AC-3
Format/Info                              : Audio Coding 3
Commercial name                          : Dolby Digital
Codec ID                                 : A_AC3
Duration                                 : 1 h 43 min
Bit rate mode                            : Constant
Bit rate                                 : 640 kb/s
Channel(s)                               : 6 channels
Channel layout                           : L R C LFE Ls Rs
Sampling rate                            : 48.0 kHz
Frame rate                               : 31.250 FPS (1536 SPF)
Compression mode                         : Lossy
Stream size                              : 474 MiB (3%)
Title                                    : English
Language                                 : English
Service kind                             : Complete Main
Default                                  : Yes
Forced                                   : No

Text #1
ID                                       : 4
Format                                   : PGS
Muxing mode                              : zlib
Codec ID                                 : S_HDMV/PGS
Codec ID/Info                            : Picture based subtitle format used on BDs/HD-DVDs
Duration                                 : 1 h 36 min
Bit rate                                 : 39.7 kb/s
Frame rate                               : 0.450 FPS
Count of elements                        : 2594
Stream size                              : 27.3 MiB (0%)
Title                                    : ENG
Language                                 : English
Default                                  : Yes
Forced                                   : No

Text #2
ID                                       : 5
Format                                   : PGS
Muxing mode                              : zlib
Codec ID                                 : S_HDMV/PGS
Codec ID/Info                            : Picture based subtitle format used on BDs/HD-DVDs
Duration                                 : 1 h 35 min
Bit rate                                 : 11.1 kb/s
Frame rate                               : 0.296 FPS
Count of elements                        : 1690
Stream size                              : 7.59 MiB (0%)
Title                                    : CHS
Language                                 : Chinese
Default                                  : Yes
Forced                                   : No

Text #3
ID                                       : 6
Format                                   : PGS
Muxing mode                              : zlib
Codec ID                                 : S_HDMV/PGS
Codec ID/Info                            : Picture based subtitle format used on BDs/HD-DVDs
Duration                                 : 1 h 35 min
Bit rate                                 : 11.6 kb/s
Frame rate                               : 0.296 FPS
Count of elements                        : 1690
Stream size                              : 7.94 MiB (0%)
Title                                    : CHT
Language                                 : Chinese
Default                                  : Yes
Forced                                   : No

Text #4
ID                                       : 7
Format                                   : PGS
Muxing mode                              : zlib
Codec ID                                 : S_HDMV/PGS
Codec ID/Info                            : Picture based subtitle format used on BDs/HD-DVDs
Duration                                 : 1 h 35 min
Bit rate                                 : 20.5 kb/s
Frame rate                               : 0.296 FPS
Count of elements                        : 1690
Stream size                              : 13.9 MiB (0%)
Title                                    : CHS&ENG
Language                                 : Chinese
Default                                  : Yes
Forced                                   : No

Text #5
ID                                       : 8
Format                                   : PGS
Muxing mode                              : zlib
Codec ID                                 : S_HDMV/PGS
Codec ID/Info                            : Picture based subtitle format used on BDs/HD-DVDs
Duration                                 : 1 h 35 min
Bit rate                                 : 21.0 kb/s
Frame rate                               : 0.296 FPS
Count of elements                        : 1690
Stream size                              : 14.3 MiB (0%)
Title                                    : CHT&ENG
Language                                 : Chinese
Default                                  : Yes
Forced                                   : No

Menu
00:00:00.000                             : en:绗?01 绔?
00:04:34.900                             : en:绗?02 绔?
00:12:41.010                             : en:绗?03 绔?
00:18:34.155                             : en:绗?04 绔?
00:23:48.385                             : en:绗?05 绔?
00:30:23.030                             : en:绗?06 绔?
00:35:34.925                             : en:绗?07 绔?
00:41:38.413                             : en:绗?08 绔?
00:46:08.849                             : en:绗?09 绔?
00:51:27.835                             : en:绗?10 绔?
00:56:52.909                             : en:绗?11 绔?
01:02:47.097                             : en:绗?12 绔?
01:10:31.227                             : en:绗?13 绔?
01:19:13.541                             : en:绗?14 绔?
01:27:05.721                             : en:绗?15 绔?
01:36:44.924                             : en:绗?16 绔?


点击图片可查看大图

软字幕无法在截图上展现,HDR版本/杜比视界版本截图会出现颜色异常,请使用支持的设备播放!

[高清电影] 血爱成河[HDR/杜比视界双版本][简繁英字幕].Love.Lies.Bleeding.2024.2160p.UHD.BluRay.DV.x265.10bit.TrueHD.7.1.Atmos-ParkHD

[高清电影] 血爱成河[HDR/杜比视界双版本][简繁英字幕].Love.Lies.Bleeding.2024.2160p.UHD.BluRay.DV.x265.10bit.TrueHD.7.1.Atmos-ParkHD

[高清电影] 血爱成河[HDR/杜比视界双版本][简繁英字幕].Love.Lies.Bleeding.2024.2160p.UHD.BluRay.DV.x265.10bit.TrueHD.7.1.Atmos-ParkHD

[高清电影] 血爱成河[HDR/杜比视界双版本][简繁英字幕].Love.Lies.Bleeding.2024.2160p.UHD.BluRay.DV.x265.10bit.TrueHD.7.1.Atmos-ParkHD

[高清电影] 血爱成河[HDR/杜比视界双版本][简繁英字幕].Love.Lies.Bleeding.2024.2160p.UHD.BluRay.DV.x265.10bit.TrueHD.7.1.Atmos-ParkHD

[高清电影] 血爱成河[HDR/杜比视界双版本][简繁英字幕].Love.Lies.Bleeding.2024.2160p.UHD.BluRay.DV.x265.10bit.TrueHD.7.1.Atmos-ParkHD

部分资源为软字幕,移动端推荐播放器:MxPlayer,nPlayer,infuse ,其他播放器请自行尝试。

部分资源为软字幕,电脑端推荐播放器:PotPlayer,完美解码,KMPLAYER,其他播放器请自行尝试。

下载端推荐纯BT下载软件:qBittorrent,Bitcomet,uTorrent ,其他下载软件请自行尝试。不支持吸血迅雷。

附件:


友情小提示:

本站所有内容均由互联网收集整理、网友分享,我们不承担任何技术、责任及版权问题,资源测速后请24小时后删除!若您需要请您购买正版授权并合法使用,我们不对任何资源负法律责任。

资源失效请留言站长,压缩文件请在电脑上用最新版的好压或者360压缩软件解压,请勿在线解压,手机解压失败的勿扰。

网赚盘链接失效不补,要稳定请移步干净云或BT,BT比较推荐用xdown(https://xdown.org/)或Sharea(http://shareaza.sourceforge.net/)下载,也可用115、PikPak、uTorrent或BitComet下载。

网友评论

您需要 登录账户 后才能发表评论
精品推荐!
  • 最新文章
  • 热门文章
  • 热评文章
最新评论
热门标签
站点信息
  • 文章总数:14488
  • 页面总数:0
  • 分类总数:19
  • 标签总数:552
  • 评论总数:235
  • 浏览总数:1276749
友情链接