[动画] 蜡笔小新:幽靈忍者珍風傳[国粤日多音轨/简繁字幕].Crayon.Shinchan.The.Tornado.Legend.of.Ninja.Mononoke.2022.1080p.BluRay.x265.10bit-CTRLHD

115大咖9252023-01-27 01:52:321条评论

✔资源类型:暂未分类 ✔电影年份:2022 ✔电影地区:日本 ✔电影分类:动画

[动画] 蜡笔小新:幽靈忍者珍風傳[国粤日多音轨/简繁字幕].Crayon.Shinchan.The.Tornado.Legend.of.Ninja.Mononoke.2022.1080p.BluRay.x265.10bit-CTRLHD


◎标  题 蜡笔小新:幽靈忍者珍風傳
◎片  名 クレヨンしんちゃん もののけニンジャ珍風伝
◎年  代 2022
◎产  地 日本
◎类  别 动画
◎语  言 日语
◎上映日期 2022-04-22(日本)
◎IMDb评分 7.8/10 (101人评价)
◎IMDb链接 https://www.imdb.com/title/tt16410438/
◎豆瓣评分 8.4/10 (11380人评价)
◎豆瓣链接 https://movie.douban.com/subject/35693381/
◎片  长 100分钟
◎导  演 桥本昌和 Masakazu Hashimoto
◎编  剧 桥本昌和 Masakazu Hashimoto
     上野贵美子 Kimiko Ueno
◎演  员 小林由美子 Yumiko Kobayashi
     楢桥美纪 Miki Narahashi
     森川智之 Toshiyuki Morikawa
     兴梠里美 Satomi Koorogi
     塾一久 Juku Ikkyuu
     间宫康弘 Yasuhiro Mamiya
     雨宫天 Sora Amamiya
     种崎敦美 Atsumi Tanezaki
     利根健太朗 Tone Kentarou
     乃村健次 Kenji Nomura
     飞田展男 Nobuo Tobita
     麻生智久 Asou Tomohisa
     大西健晴 Oonishi Takeharu
     拜真之介 Shinnosuke Ogami
     内匠靖明 Takumi Yasuaki
     高桥孝治 Takahashi Kouji
     山本格 Yamamoto Itaru
     须藤沙织 Sudou Saori
     设乐麻美 Mami Shitara
     悠木碧 Aoi Yuki
     宫泽正 Miyazawa Tadashi
     浦山迅 Jin Urayama
     泽部佑 Yu Sawabe
     岩井勇气 Yuki Iwai
     山田孝之 Yamada Takayuki
     川荣李奈 Rina Kawaei
     米良美一 Yoshikazu Mera
     真柴摩利 Mashiba Mari
     玄田哲章 Tesshô Genda
     林玉绪 Hayashi Tamao
     一龙斋贞友 Teiyû Ichiryûsai
     佐藤智惠 Satou Chie
     高垣彩阳 Ayahi Takagaki
     花江夏树 Natsuki Hanae
     伊原正明 Ihara Masaaki

◎简  介
    故事描述一个叫屁祖隐的女人带着5岁的少年来到野原广志和美冴的家里,告诉他们自己是广志和美冴的5岁儿子新之助的亲生母亲。二人留宿的当晚,野原家遭到神秘忍者集团的袭击。新之助被绑架了。屁祖隐家是忍者的故乡,世代守护着地球的能量“宁特鲁”的家族。于是,地球的存亡就交给了新之助的忍法。

  1. ##### MediaInfo ######

  2. General

  3. Unique ID          : 184256636120740448582228505113040957595 (0x8A9E898C360268C1A6B431CDD582B09B)

  4. Complete name          : Crayon.Shinchan.The.Tornado.Legend.of.Ninja.Mononoke.2022.1080p.BluRay.x265.10bit-CTRLHD.mkv

  5. Format           : Matroska

  6. Format version         : Version 4

  7. File size          : 3.50 GiB

  8. Duration           : 1 h 39 min

  9. Overall bit rate         : 5 040 kb/s

  10. Movie name           : Crayon Shinchan: The Tornado Legend Of Ninja Mononoke

  11. Encoded date         : UTC 2023-01-13 04:45:14

  12. Writing application        : mkvmerge v73.0.0 ('25 or 6 to 4') 64-bit

  13. Writing library        : libebml v1.4.4 + libmatroska v1.7.1

  14. Attachments          : FZZhunYuan-M02.ttf


  15. Video

  16. ID             : 1

  17. Format           : HEVC

  18. Format/Info          : High Efficiency Video Coding

  19. Format profile         : Main 10@L5@Main

  20. Codec ID           : V_MPEGH/ISO/HEVC

  21. Duration           : 1 h 39 min

  22. Bit rate           : 3 808 kb/s

  23. Width            : 1 920 pixels

  24. Height           : 1 080 pixels

  25. Display aspect ratio       : 16:9

  26. Frame rate mode        : Constant

  27. Frame rate           : 23.976 (24000/1001) FPS

  28. Color space          : YUV

  29. Chroma subsampling       : 4:2:0

  30. Bit depth          : 10 bits

  31. Bits/(Pixel*Frame)       : 0.077

  32. Stream size          : 2.65 GiB (76%)

  33. Title            : Jubowo @ WiKi

  34. Language           : Japanese

  35. Default            : Yes

  36. Forced           : No


  37. Audio #1

  38. ID             : 2

  39. Format           : AC-3

  40. Format/Info          : Audio Coding 3

  41. Commercial name        : Dolby Digital

  42. Codec ID           : A_AC3

  43. Duration           : 1 h 39 min

  44. Bit rate mode          : Constant

  45. Bit rate           : 640 kb/s

  46. Channel(s)           : 6 channels

  47. Channel layout         : L R C LFE Ls Rs

  48. Sampling rate          : 48.0 kHz

  49. Frame rate           : 31.250 FPS (1536 SPF)

  50. Compression mode         : Lossy

  51. Stream size          : 456 MiB (13%)

  52. Title            : 日语

  53. Language           : Japanese

  54. Service kind         : Complete Main

  55. Default            : Yes

  56. Forced           : No


  57. Audio #2

  58. ID             : 3

  59. Format           : AC-3

  60. Format/Info          : Audio Coding 3

  61. Commercial name        : Dolby Digital

  62. Codec ID           : A_AC3

  63. Duration           : 1 h 39 min

  64. Bit rate mode          : Constant

  65. Bit rate           : 384 kb/s

  66. Channel(s)           : 6 channels

  67. Channel layout         : L R C LFE Ls Rs

  68. Sampling rate          : 48.0 kHz

  69. Frame rate           : 31.250 FPS (1536 SPF)

  70. Compression mode         : Lossy

  71. Stream size          : 273 MiB (8%)

  72. Title            : 粤语

  73. Language           : Chinese

  74. Service kind         : Complete Main

  75. Default            : No

  76. Forced           : No


  77. Audio #3

  78. ID             : 4

  79. Format           : AC-3

  80. Format/Info          : Audio Coding 3

  81. Commercial name        : Dolby Digital

  82. Codec ID           : A_AC3

  83. Duration           : 1 h 39 min

  84. Bit rate mode          : Constant

  85. Bit rate           : 192 kb/s

  86. Channel(s)           : 2 channels

  87. Channel layout         : L R

  88. Sampling rate          : 48.0 kHz

  89. Frame rate           : 31.250 FPS (1536 SPF)

  90. Compression mode         : Lossy

  91. Stream size          : 137 MiB (4%)

  92. Title            : 国语

  93. Language           : Chinese

  94. Service kind         : Complete Main

  95. Default            : No

  96. Forced           : No


  97. Text #1

  98. ID             : 5

  99. Format           : ASS

  100. Codec ID           : S_TEXT/ASS

  101. Codec ID/Info          : Advanced Sub Station Alpha

  102. Duration           : 1 h 38 min

  103. Bit rate           : 111 b/s

  104. Count of elements        : 1836

  105. Compression mode         : Lossless

  106. Stream size          : 81.0 KiB (0%)

  107. Title            : 台版简体

  108. Language           : Chinese

  109. Default            : Yes

  110. Forced           : No


  111. Text #2

  112. ID             : 6

  113. Format           : ASS

  114. Codec ID           : S_TEXT/ASS

  115. Codec ID/Info          : Advanced Sub Station Alpha

  116. Duration           : 1 h 38 min

  117. Bit rate           : 111 b/s

  118. Count of elements        : 1836

  119. Compression mode         : Lossless

  120. Stream size          : 81.0 KiB (0%)

  121. Title            : 台版繁體

  122. Language           : Chinese

  123. Default            : No

  124. Forced           : No


  125. Text #3

  126. ID             : 7

  127. Format           : ASS

  128. Codec ID           : S_TEXT/ASS

  129. Codec ID/Info          : Advanced Sub Station Alpha

  130. Duration           : 1 h 38 min

  131. Bit rate           : 105 b/s

  132. Count of elements        : 1705

  133. Compression mode         : Lossless

  134. Stream size          : 76.5 KiB (0%)

  135. Title            : 港版简体

  136. Language           : Chinese

  137. Default            : No

  138. Forced           : No


  139. Text #4

  140. ID             : 8

  141. Format           : ASS

  142. Codec ID           : S_TEXT/ASS

  143. Codec ID/Info          : Advanced Sub Station Alpha

  144. Duration           : 1 h 38 min

  145. Bit rate           : 105 b/s

  146. Count of elements        : 1705

  147. Compression mode         : Lossless

  148. Stream size          : 76.5 KiB (0%)

  149. Title            : 港版繁體

  150. Language           : Chinese

  151. Default            : No

  152. Forced           : No


  153. Menu

  154. 00:00:00.000         : :Chapter 1

  155. 00:01:24.084         : :Chapter 2

  156. 00:03:51.565         : :Chapter 3

  157. 00:10:54.863         : :Chapter 4

  158. 00:13:22.051         : :Chapter 5

  159. 00:15:43.651         : :Chapter 6

  160. 00:19:09.774         : :Chapter 7

  161. 00:26:04.480         : :Chapter 8

  162. 00:32:36.997         : :Chapter 9

  163. 00:35:36.843         : :Chapter 10

  164. 00:40:57.956         : :Chapter 11

  165. 00:44:11.566         : :Chapter 12

  166. 00:48:50.719         : :Chapter 13

  167. 00:52:27.061         : :Chapter 14

  168. 01:00:30.961         : :Chapter 15

  169. 01:07:24.999         : :Chapter 16

  170. 01:15:17.388         : :Chapter 17

  171. 01:24:51.712         : :Chapter 18

  172. 01:27:55.604         : :Chapter 19

  173. 01:35:50.662         : :Chapter 20




隐藏内容
评论可见
前往评论



友情小提示:

本站所有内容均由互联网收集整理、网友分享,我们不承担任何技术、责任及版权问题,资源测速后请24小时后删除!若您需要请您购买正版授权并合法使用,我们不对任何资源负法律责任。

资源失效请留言站长,压缩文件请在电脑上用最新版的好压或者360压缩软件解压,请勿在线解压,手机解压失败的勿扰。

网赚盘链接失效不补,要稳定请移步干净云或BT,BT比较推荐用xdown(https://xdown.org/)或Sharea(http://shareaza.sourceforge.net/)下载,也可用115、PikPak、uTorrent或BitComet下载。

网友评论当前共有1条评论

您需要 登录账户 后才能发表评论
精品推荐!
  • 最新文章
  • 热门文章
  • 热评文章
最新评论
热门标签
站点信息
  • 文章总数:14488
  • 页面总数:0
  • 分类总数:19
  • 标签总数:552
  • 评论总数:235
  • 浏览总数:1276749
友情链接